The Lonely Trail (1936) John Wayne

Ir em baixo

The Lonely Trail (1936) John Wayne Empty The Lonely Trail (1936) John Wayne

Mensagem por Lucio49 em Qua Jul 17, 2019 3:37 pm

Cópia em BluRay


The Lonely Trail (1936) John Wayne Xjb8m6K
Man Hunt (1936)
https://www.imdb.com/title/tt0027905/
Nota IMDB - 5.6

Sinopse:
Embora ele tenha lutado pelo norte na Guerra Civil, John é convidado pelo governador do Texas a se livrar de alguns problemas no sul. Ele pede a ajuda do adjunto do governador Holden antes de saber que ele também está saqueando o povo local.

Informação Geral:
Título no Brasil: A trilha Solitária  
Título Original: The Lonely Trail
País de Origem:  (USA)
Gênero:  Drama,Western
Tempo de Duração: 56min
Ano de Lançamento:   1936
Direção:  Joseph Kane
Idioma: English
Legenda: Português


Elenco:
 
John Wayne -Captain John Ashley
Ann Rutherford -Virginia Terry
Cy Kendall -Adjutant General Benedict Holden
Bob Kortman -Captain Hays
Fred 'Snowflake' -Snowflake (as Snowflake)
Sam Flint -Governor of Texas
Dennis Moore -Dick Terry (as Denny Meadows)
Jim Toney -Jed Calicutt (as Jim Tony)
Etta McDaniel -Mammy (as Etta Mcdaniels)
Yakima Canutt -Bull Horrell
Lloyd Ingraham -Tucker
James A. Marcus -Mayor (as James Marcus)
Eugene Jackson -Harmonica Player / Dancer


Código:

Informação Técnica
General

Format                      : MPEG-4
Format profile              : Base Media
Codec ID                    : isom (isom/iso2/avc1/mp41)
File size                   : 1.07 GiB
Duration                    : 56 min 1 s
Overall bit rate            : 2 731 kb/s
Movie name                  : The.Lonely.Trail.1936.1080p.BluRay.H264.AAC-RARBG
Encoded date                : UTC 2019-07-11 17:51:09
Tagged date                 : UTC 2019-07-11 17:51:09
Writing application         : Lavf58.20.100
Comment                     : The.Lonely.Trail.1936.1080p.BluRay.H264.AAC-RARBG

Video
ID                          : 1
Format                      : AVC
Format/Info                 : Advanced Video Codec
Format profile              : High@L4.1
Format settings             : CABAC / 4 Ref Frames
Format settings, CABAC      : Yes
Format settings, Reference  : 4 frames
Codec ID                    : avc1
Codec ID/Info               : Advanced Video Coding
Duration                    : 56 min 0 s
Bit rate                    : 2 500 kb/s
Width                       : 1 484 pixels
Height                      : 1 080 pixels
Display aspect ratio        : 1.374
Frame rate mode             : Constant
Frame rate                  : 23.976 (23976/1000) FPS
Color space                 : YUV
Chroma subsampling          : 4:2:0
Bit depth                   : 8 bits
Scan type                   : Progressive
Bits/(Pixel*Frame)          : 0.065
Stream size                 : 1 002 MiB (92%)


Audio
ID                          : 2
Format                      : AAC LC
Format/Info                 : Advanced Audio Codec Low Complexity
Codec ID                    : mp4a-40-2
Duration                    : 56 min 1 s
Bit rate mode               : Constant
Bit rate                    : 224 kb/s
Channel(s)                  : 1 channel
Channel layout              : C
Sampling rate               : 48.0 kHz
Frame rate                  : 46.875 FPS (1024 SPF)
Compression mode            : Lossy
Stream size                 : 89.7 MiB (8%)
Language                    : English
Default                     : Yes
Alternate group             : 1
Encoded date                : UTC 2019-07-11 17:51:09
Tagged date                 : UTC 2019-07-11 17:51:09



Screen Shots

The Lonely Trail (1936) John Wayne QPIOPqW

The Lonely Trail (1936) John Wayne Maozin10
Para visualizar Link com Legenda, Faça  um comentário:

Lucio49
Lucio49
Admin

Mensagens : 90
Data de inscrição : 10/06/2019
Localização : São Paulo

http://cine-antigo.forumeiros.com

Voltar ao Topo Ir em baixo

Voltar ao Topo

- Tópicos similares

 
Permissão deste fórum:
Você não pode responder aos tópicos neste fórum