Perseguição Mortal (1981) Charles Bronson

Ir em baixo

Perseguição Mortal (1981) Charles Bronson Empty Perseguição Mortal (1981) Charles Bronson

Mensagem por Lucio49 em Qua Jul 24, 2019 5:38 pm

Cópia em BluRay


Perseguição Mortal (1981) Charles Bronson IruiZPM
Death Hunt (1981)
https://www.imdb.com/title/tt0082247/
Nota IMDB - 7.0

Sinopse:
Em 1931 no Canadá, o caçador Johnson (Charles Bronson) de Yukon, tem uma rixa com um dono de cachorro que mais tarde revida publicamente acusando Johnson de assassinato e, assim, provocando uma perseguição policial pela montanhas.

Informação Geral:
Título no Brasil: Perseguição Mortal  
Título Original: Death Hunt
País de Origem:  (USA)
Gênero:  Ação,Aventura,Crime
Tempo de Duração: 1h 37min
Ano de Lançamento:   1981
Direção:  Peter R. Hunt
Idioma: English
Legenda: Português


Elenco:
 
 
Charles Bronson -Albert Johnson
Lee Marvin -Millen
Andrew Stevens -Alvin
Carl Weathers -Sundog
Ed Lauter -Hazel
Scott Hylands -The Pilot
Angie Dickinson -Vanessa McBride
Henry Beckman -Bill Luce
William Sanderson-Ned Warren
Jon Cedar J-Hawkins
James O'Connell J-Hurley
Len Lesser -Lewis
Richard Davalos -Beeler (as Dick Davalos)
Maury Chaykin -Clarence
August Schellenberg-Deak De Bleargue


Código:

Informação Técnica
General

Format                      : MPEG-4
Format profile              : Base Media
Codec ID                    : isom (isom/iso2/mp41)
File size                   : 1.31 GiB
Duration                    : 1 h 37 min
Overall bit rate            : 1 929 kb/s
Writing application         : Lavf58.20.100

Video
ID                          : 1
Format                      : HEVC
Format/Info                 : High Efficiency Video Coding
Format profile              : Main@L5.1@Main
Codec ID                    : hev1
Codec ID/Info               : High Efficiency Video Coding
Duration                    : 1 h 37 min
Bit rate                    : 1 797 kb/s
Width                       : 1 280 pixels
Height                      : 696 pixels
Display aspect ratio        : 1.85:1
Frame rate mode             : Constant
Frame rate                  : 23.976 (24000/1001) FPS
Original frame rate         : 23.976 (23976/1000) FPS
Color space                 : YUV
Chroma subsampling          : 4:2:0
Bit depth                   : 8 bits
Bits/(Pixel*Frame)          : 0.084
Stream size                 : 1.22 GiB (93%)

Audio
ID                          : 2
Format                      : AC-3
Format/Info                 : Audio Coding 3
Commercial name             : Dolby Digital
Codec ID                    : ac-3
Duration                    : 1 h 37 min
Bit rate mode               : Constant
Bit rate                    : 128 kb/s
Channel(s)                  : 2 channels
Channel layout              : L R
Sampling rate               : 48.0 kHz
Frame rate                  : 31.250 FPS (1536 SPF)
Bit depth                   : 16 bits
Compression mode            : Lossy
Stream size                 : 88.8 MiB (7%)
Service kind                : Complete Main
Default                     : Yes
Alternate group             : 1



Screen Shots

Perseguição Mortal (1981) Charles Bronson Im5FecS


Perseguição Mortal (1981) Charles Bronson Maozin10
Para visualizar Link com Legenda, Faça  um comentário:

Lucio49
Lucio49
Admin

Mensagens : 90
Data de inscrição : 10/06/2019
Localização : São Paulo

http://cine-antigo.forumeiros.com

Voltar ao Topo Ir em baixo

Voltar ao Topo

- Tópicos similares

 
Permissão deste fórum:
Você não pode responder aos tópicos neste fórum