Two-Fisted Law (1932) Tim McCoy

Ir em baixo

Two-Fisted Law (1932)  Tim McCoy  Empty Two-Fisted Law (1932) Tim McCoy

Mensagem por Lucio49 em Qui Ago 01, 2019 11:21 am

Cópia Remasterizada


Two-Fisted Law (1932)  Tim McCoy  SZLQ7mi
Two-Fisted law (1932)
https://www.imdb.com/title/tt0023631/
Nota IMDB - 5.8

Sinopse:
Depois que Rob Russell rouba o rancho de Tim Clark (Tim McCoy), Clark começa a prospecção de prata.

Informação Geral:
Título no Brasil: A Lei da Coragem  
Título Original: Two-Fisted Law
País de Origem:  (USA)
Gênero:  Romance, Western
Tempo de Duração: 56min
Ano de Lançamento:   1932
Direção:  D. Ross Lederman
Idioma: English
Legenda: Português


Elenco:
 
 
Tim McCoy -Tim Clark
Alice Day -Betty Owen
Wheeler Oakman -Bob Russell
Tully Marshall -Sheriff Malcolm
Wallace MacDonald-Artie
John Wayne -Duke
Walter Brennan -Deputy Sheriff Bendix
Richard Alexander-Zeke Yokum


Código:

Geral

Format                      : MPEG-4
Format profile              : Base Media
Codec ID                    : isom (isom/iso2/mp41)
File size                   : 661 MiB
Duration                    : 56 min 51 s
Overall bit rate            : 1 624 kb/s
Writing application         : Lavf58.20.100

Video
ID                          : 1
Format                      : HEVC
Format/Info                 : High Efficiency Video Coding
Format profile              : Main@L5.1@Main
Codec ID                    : hev1
Codec ID/Info               : High Efficiency Video Coding
Duration                    : 56 min 51 s
Bit rate                    : 1 490 kb/s
Width                       : 710 pixels
Height                      : 520 pixels
Display aspect ratio        : 4:3
Frame rate mode             : Constant
Frame rate                  : 29.970 (30000/1001) FPS
Original frame rate         : 29.970 (29970/1000) FPS
Color space                 : YUV
Chroma subsampling          : 4:2:0
Bit depth                   : 8 bits
Bits/(Pixel*Frame)          : 0.135
Stream size                 : 606 MiB (92%)


Audio
ID                          : 2
Format                      : AAC LC
Format/Info                 : Advanced Audio Codec Low Complexity
Codec ID                    : mp4a-40-2
Duration                    : 56 min 51 s
Bit rate mode               : Constant
Bit rate                    : 128 kb/s
Channel(s)                  : 2 channels
Channel layout              : L R
Sampling rate               : 48.0 kHz
Frame rate                  : 46.875 FPS (1024 SPF)
Compression mode            : Lossy
Stream size                 : 52.1 MiB (8%)
Default                     : Yes
Alternate group             : 1
Menus                       : 3

Menu #1
ID                          : 3
Codec ID                    : text
Duration                    : 56 min 51 s
Language                    : English
Menu For                    : 1,2




Screen Shots

Two-Fisted Law (1932)  Tim McCoy  Ek8hsr1


Two-Fisted Law (1932)  Tim McCoy  Maozin10
Para visualizar Link com Legenda, Faça  um comentário:

Lucio49
Lucio49
Admin

Mensagens : 90
Data de inscrição : 10/06/2019
Localização : São Paulo

http://cine-antigo.forumeiros.com

Voltar ao Topo Ir em baixo

Voltar ao Topo

- Tópicos similares

 
Permissão deste fórum:
Você não pode responder aos tópicos neste fórum