A Lenda dos Desaparecidos (1957) John Wayne

Ir em baixo

A Lenda dos Desaparecidos (1957) John Wayne Empty A Lenda dos Desaparecidos (1957) John Wayne

Mensagem por Lucio49 em Sab Ago 03, 2019 1:18 pm

Cópia em BluRay


A Lenda dos Desaparecidos (1957) John Wayne EfFPMTx
Legend Of The Lost (1957)
https://www.imdb.com/title/tt0050629/
Nota IMDB - 6.1

Sinopse:
O norte-americano Joe January (John Wayne) é contratado como guia para levar o aventureiro, Paul Bonnard em uma expedição ao deserto em busca de tesouros.

Informação Geral:
Título no Brasil: A Lenda dos Desaparecidos  
Título Original: Legend of The Lost
País de Origem:  (USA)
Gênero:  Romance, Western
Tempo de Duração: 1 h 49min
Ano de Lançamento:   1957
Direção:  Henry Hathaway
Idioma: English
Legenda: Português


Elenco:

John Wayne - Joe January
Sophia Loren - Dita
Rossano Brazzi - Paul Bonnard
Kurt Kasznar - Prefect Dukas
Sonia Moser - Girl
Angela Portaluri- Girl
Ibrahim El HadishI- Galli Galli


Código:

Geral


Format                      : MPEG-4
Format profile              : Base Media
Codec ID                    : isom (isom/iso2/mp41)
File size                   : 1.24 GiB
Duration                    : 1 h 48 min
Overall bit rate            : 1 640 kb/s
Writing application         : Lavf58.20.100

Video
ID                          : 1
Format                      : HEVC
Format/Info                 : High Efficiency Video Coding
Format profile              : Main@L5.1@Main
Codec ID                    : hev1
Codec ID/Info               : High Efficiency Video Coding
Duration                    : 1 h 48 min
Bit rate                    : 1 508 kb/s
Width                       : 1 440 pixels
Height                      : 720 pixels
Display aspect ratio        : 2.000
Frame rate mode             : Constant
Frame rate                  : 23.976 (24000/1001) FPS
Original frame rate         : 23.976 (23976/1000) FPS
Color space                 : YUV
Chroma subsampling          : 4:2:0
Bit depth                   : 8 bits
Bits/(Pixel*Frame)          : 0.061
Stream size                 : 1.14 GiB (92%)


Audio
ID                          : 2
Format                      : AAC LC
Format/Info                 : Advanced Audio Codec Low Complexity
Codec ID                    : mp4a-40-2
Duration                    : 1 h 48 min
Bit rate mode               : Constant
Bit rate                    : 128 kb/s
Channel(s)                  : 2 channels
Channel layout              : L R
Sampling rate               : 48.0 kHz
Frame rate                  : 46.875 FPS (1024 SPF)
Compression mode            : Lossy
Stream size                 : 99.4 MiB (8%)
Default                     : Yes
Alternate group             : 1


[center]Screen Shots

A Lenda dos Desaparecidos (1957) John Wayne LlUBP3Z

A Lenda dos Desaparecidos (1957) John Wayne Maozin10
Para visualizar Link com Legenda, Faça  um comentário:



Última edição por Lucio49 em Qui Set 05, 2019 2:57 pm, editado 1 vez(es)
Lucio49
Lucio49
Admin

Mensagens : 90
Data de inscrição : 10/06/2019
Localização : São Paulo

http://cine-antigo.forumeiros.com

Voltar ao Topo Ir em baixo

A Lenda dos Desaparecidos (1957) John Wayne Empty Re: A Lenda dos Desaparecidos (1957) John Wayne

Mensagem por Lucio49 em Ter Ago 27, 2019 11:46 am

muito bom.
Lucio49
Lucio49
Admin

Mensagens : 90
Data de inscrição : 10/06/2019
Localização : São Paulo

http://cine-antigo.forumeiros.com

Voltar ao Topo Ir em baixo

Voltar ao Topo

- Tópicos similares

 
Permissão deste fórum:
Você não pode responder aos tópicos neste fórum