Catlow (1971) Yul Brynner

Ir em baixo

Catlow  (1971) Yul Brynner Empty Catlow (1971) Yul Brynner

Mensagem por Lucio49 em Qua Ago 07, 2019 6:06 pm

Cópia em HD


Catlow  (1971) Yul Brynner XVgc0NI
Catlow (1971)
https://www.imdb.com/title/tt0066900/
Nota IMDB - 5.6

Sinopse:
Nesta divertida mistura de faroeste e comédia, onde Yul Brynner interpreta Catlow, um ladrão que, junto com seus homens, reuniu gado sem marcar e planeja vendê-lo em Abilene. Mas “No Rastro da Morte” é basicamente a história da amizade entre dois homens: Catlow e Ben Cowan (Richard Crenna). O filme narra a procura de Cowan pelo seu amigo de infância Catlow. Mas Cowan é um delegado e a relação entre ambos não será nada fácil.

Informação Geral:
Título no Brasil: No Rastro da Morte  
Título Original: Catlow
País de Origem:  (USA)
Gênero:  Comédia, Western
Tempo de Duração: 1 h 41min
Ano de Lançamento:   1971
Direção:  Sam Wanamaker
Idioma: English
Legenda: Português


Elenco:

Yul Brynner -Catlow
Richard Crenna -Cowan
Leonard Nimoy -Miller
Daliah Lavi -Rosita
Jo Ann Pflug J-Christina
Jeff Corey -Merridew
Michael DeLano -Rio (as Michael Delano)
Julián Mateos -Recalde (as Julian Mateos)
David Ladd -Caxton
Bessie Love -Mrs. Frost
Robert Logan -Oley (as Bob Logan)
John Clark -Keleher
Dan van Husen -Dutch
Cass Martin -Sanchez
José Nieto -General (as Jose Nieto)
Ángel del Pozo -Vargas (as Angel del Pozo)
Víctor Israel -Pesquiera (as Victor Israel)
Erika López -Sara (as Erika Lopez)
Tito García -Pedro (as Tito Garcia)



Código:

Geral

Format                      : MPEG-4
Format profile              : Base Media
Codec ID                    : isom (isom/iso2/mp41)
File size                   : 1.37 GiB
Duration                    : 1 h 41 min
Overall bit rate            : 1 933 kb/s
Writing application         : Lavf58.20.100

Video
ID                          : 1
Format                      : HEVC
Format/Info                 : High Efficiency Video Coding
Format profile              : Main@L5.1@Main
Codec ID                    : hev1
Codec ID/Info               : High Efficiency Video Coding
Duration                    : 1 h 41 min
Bit rate                    : 1 800 kb/s
Width                       : 1 134 pixels
Height                      : 640 pixels
Display aspect ratio        : 16:9
Frame rate mode             : Constant
Frame rate                  : 23.976 (24000/1001) FPS
Original frame rate         : 23.976 (23976/1000) FPS
Color space                 : YUV
Chroma subsampling          : 4:2:0
Bit depth                   : 8 bits
Bits/(Pixel*Frame)          : 0.103
Stream size                 : 1.27 GiB (93%)


Audio
ID                          : 2
Format                      : AAC LC
Format/Info                 : Advanced Audio Codec Low Complexity
Codec ID                    : mp4a-40-2
Duration                    : 1 h 41 min
Bit rate mode               : Constant
Bit rate                    : 128 kb/s
Channel(s)                  : 2 channels
Channel layout              : L R
Sampling rate               : 48.0 kHz
Frame rate                  : 46.875 FPS (1024 SPF)
Compression mode            : Lossy
Stream size                 : 92.6 MiB (7%)
Default                     : Yes
Alternate group             : 1
Menus                       : 3

Menu #1
ID                          : 3
Codec ID                    : text
Duration                    : 1 h 41 min
Language                    : English
Menu For                    : 1,2

Menu #2





Screen Shots

Catlow  (1971) Yul Brynner UuBJU8J


Catlow  (1971) Yul Brynner Maozin10
Para visualizar Link com Legenda, Faça  um comentário:

Lucio49
Lucio49
Admin

Mensagens : 90
Data de inscrição : 10/06/2019
Localização : São Paulo

http://cine-antigo.forumeiros.com

Voltar ao Topo Ir em baixo

Voltar ao Topo

- Tópicos similares

 
Permissão deste fórum:
Você não pode responder aos tópicos neste fórum