Arizona Raiders (1965) Audie Murphy

Ir em baixo

Arizona Raiders  (1965)  Audie Murphy Empty Arizona Raiders (1965) Audie Murphy

Mensagem por Lucio49 em Qui Ago 08, 2019 11:07 am

Cópia em HD


Arizona Raiders  (1965)  Audie Murphy Yn1pdBo
Arizona Raiders (1965)
https://www.imdb.com/title/tt0058917/
Nota IMDB - 6.0

Sinopse:
Quando a gangue de Quantrell é quase destruída pelo exército da União, dois dos membros capturados concordam em se juntar aos Arizona Rangers para ajudar a prender o resto da gangue.

Nota Importante:
A versão deste vídeo em HDTV (alta definição) foi reduzida em 12 minutos em relação ao vídeo original em DVD.  
A parte removida é um prólogo da história narrada por um editor de um jornal, no início do filme.

Informação Geral:
Título no Brasil: Bandoleiros do Arizona 
Título Original: Arizona Raiders
País de Origem:  (USA)
Gênero:  Comédia, Western
Tempo de Duração: 1 h 25min
Ano de Lançamento:   1965
Direção:  Sam Wanamaker
Idioma: English
Legenda: Português


Elenco:


Audie Murphy -Clint
Michael Dante -Brady
Ben Cooper -Willie Martin
Buster Crabbe -Capt. Andrews
Gloria Talbott -Martina
Ray Stricklyn -Danny Bonner
George Keymas -Montana
Fred Krone -Matt Edwards
Willard W. Willingham -Eddie (as Willard Willingham)
Boyd 'Red' Morgan -Tex (as Red Morgan)
Fred Graham -Quantrell



Código:

Geral

Format                      : MPEG-4
Format profile              : Base Media
Codec ID                    : isom (isom/iso2/mp41)
File size                   : 1.26 GiB
Duration                    : 1 h 25 min
Overall bit rate            : 2 119 kb/s
Writing application         : Lavf58.20.100

Video
ID                          : 1
Format                      : HEVC
Format/Info                 : High Efficiency Video Coding
Format profile              : Main@L5.1@Main
Codec ID                    : hev1
Codec ID/Info               : High Efficiency Video Coding
Duration                    : 1 h 25 min
Bit rate                    : 1 987 kb/s
Width                       : 1 280 pixels
Height                      : 640 pixels
Display aspect ratio        : 2.000
Frame rate mode             : Constant
Frame rate                  : 25.000 FPS
Color space                 : YUV
Chroma subsampling          : 4:2:0
Bit depth                   : 8 bits
Bits/(Pixel*Frame)          : 0.097
Stream size                 : 1.18 GiB (94%)

Audio
ID                          : 2
Format                      : AC-3
Format/Info                 : Audio Coding 3
Commercial name             : Dolby Digital
Codec ID                    : ac-3
Duration                    : 1 h 25 min
Bit rate mode               : Constant
Bit rate                    : 128 kb/s
Channel(s)                  : 2 channels
Channel layout              : L R
Sampling rate               : 48.0 kHz
Frame rate                  : 31.250 FPS (1536 SPF)
Bit depth                   : 16 bits
Compression mode            : Lossy
Stream size                 : 78.1 MiB (6%)
Service kind                : Complete Main
Default                     : Yes
Alternate group             : 1



Screen Shots

Arizona Raiders  (1965)  Audie Murphy Ltt63sC


Arizona Raiders  (1965)  Audie Murphy Maozin10
Para visualizar Link com Legenda, Faça  um comentário:

Lucio49
Lucio49
Admin

Mensagens : 90
Data de inscrição : 10/06/2019
Localização : São Paulo

http://cine-antigo.forumeiros.com

Voltar ao Topo Ir em baixo

Voltar ao Topo

- Tópicos similares

 
Permissão deste fórum:
Você não pode responder aos tópicos neste fórum