Borrasca (1953) James Stewart

Ir em baixo

Borrasca (1953) James Stewart Empty Borrasca (1953) James Stewart

Mensagem por Lucio49 em Sex Ago 16, 2019 3:02 pm

Cópia em BluRay


Borrasca (1953) James Stewart UsgJLvW
Thunder Bay (1953)
https://www.imdb.com/title/tt0046425/
Nota IMDB - 6.5

Sinopse:
Pescadores de camarões e petroleiros se combatem quando um ambicioso
empreendedor começa a construir uma plataforma petrolífera marítima.


Informação Geral:
Título no Brasil: Borrasca 
Título Original: Thunder Bay
País de Origem:  (USA)
Gênero:  Aventura, Drama
Tempo de Duração: 1 h 42min
Ano de Lançamento:   1953
Direção:  Anthony Mann
Idioma: English
Legenda: Português


Elenco:

James Stewart -Steve
Joanne Dru -Stella Rigaud
Gilbert Roland -Teche Bossier
Dan Duryea -Gambi
Jay C. Flippen -Kermit MacDonald
Marcia Henderson -Francesca Rigaud
Robert Monet -Phillipe Bayard
Antonio Moreno -Dominique Rigaud
Harry Morgan -Rawlings (as Henry Morgan)
Fortunio Bonanova -Sheriff Antoine Chighizola
Mario Siletti -Louis Chighizola


Código:

Geral

Format profile              : Base Media
Codec ID                    : isom (isom/iso2/mp41)
File size                   : 1.17 GiB
Duration                    : 1 h 42 min
Overall bit rate            : 1 628 kb/s
Writing application         : Lavf58.20.100

Video
ID                          : 1
Format                      : HEVC
Format/Info                 : High Efficiency Video Coding
Format profile              : Main@L5.1@Main
Codec ID                    : hev1
Codec ID/Info               : High Efficiency Video Coding
Duration                    : 1 h 42 min
Bit rate                    : 1 496 kb/s
Width                       : 1 332 pixels
Height                      : 720 pixels
Display aspect ratio        : 1.85:1
Frame rate mode             : Constant
Frame rate                  : 23.976 (24000/1001) FPS
Original frame rate         : 23.976 (23976/1000) FPS
Color space                 : YUV
Chroma subsampling          : 4:2:0
Bit depth                   : 8 bits
Bits/(Pixel*Frame)          : 0.065
Stream size                 : 1.07 GiB (92%)


Audio
ID                          : 2
Format                      : AC-3
Format/Info                 : Audio Coding 3
Commercial name             : Dolby Digital
Codec ID                    : ac-3
Duration                    : 1 h 42 min
Bit rate mode               : Constant
Bit rate                    : 128 kb/s
Channel(s)                  : 2 channels
Channel layout              : L R
Sampling rate               : 48.0 kHz
Frame rate                  : 31.250 FPS (1536 SPF)
Bit depth                   : 16 bits
Compression mode            : Lossy
Stream size                 : 94.1 MiB (8%)
Service kind                : Complete Main
Default                     : Yes
Alternate group             : 1



Screen Shots

Borrasca (1953) James Stewart FQcCFuS


Borrasca (1953) James Stewart Maozin10
Para visualizar Link com Legenda, Faça  um comentário:

Lucio49
Lucio49
Admin

Mensagens : 90
Data de inscrição : 10/06/2019
Localização : São Paulo

http://cine-antigo.forumeiros.com

Voltar ao Topo Ir em baixo

Voltar ao Topo

- Tópicos similares

 
Permissão deste fórum:
Você não pode responder aos tópicos neste fórum