Stagecoach Buckaroo (1942) Johnny Mack Brown

Ir em baixo

Stagecoach Buckaroo (1942) Johnny Mack Brown Empty Stagecoach Buckaroo (1942) Johnny Mack Brown

Mensagem por Lucio49 em Dom Ago 18, 2019 8:08 am

Cópia em HD


Stagecoach Buckaroo (1942) Johnny Mack Brown DonpMjl
Stagecoach Buckaroo (1942)
https://www.imdb.com/title/tt0035376/
Nota IMDB - 5.9

Sinopse:
Após ser acusado injustamente de assaltante de diligencias, Steve Hardin (Johnny Mack Brown)
é inocentado e passa a trabalhar para a empresa de diligências ao mesmo tempo que  tenta
desbaratar a quadrilha de assaltantes.


Informação Geral:
Título no Brasil: O Mensageiro da Espingarda (não oficial)
Título Original: Stagecoach Buckaroo
País de Origem:  (USA)
Gênero:  Ação, Música, Western
Tempo de Duração: 58min
Ano de Lançamento:   1942
Direção:  Ray Taylor
Idioma: English
Legenda: Português


Elenco:

Johnny Mack Brown- Steve Hardin
Fuzzy Knight - Clem Clemmons
Nell O'Day - Molly Denton
Anne Nagel - Nina Kincaid
Herbert Rawlinson- Bill Kincaid
Glenn Strange - Breck Braddock
Henry Hall - Joseph Denton
Ernie Adams - Blinky
Lloyd Ingraham - Ezra Simpson
Frank Brownlee - Higgins
Jack C. Smith - Sheriff



Código:

Geral

Format                      : MPEG-4
Format profile              : Base Media
Codec ID                    : isom (isom/iso2/avc1/mp41)
File size                   : 578 MiB
Duration                    : 58 min 49 s
Overall bit rate            : 1 374 kb/s
Movie name                  : Stagecoach.Buckaroo.1942.WEBRip.x264-ION10
Writing application         : Lavf58.0.101
Comment                     : Stagecoach.Buckaroo.1942.WEBRip.x264-ION10

Video
ID                          : 1
Format                      : AVC
Format/Info                 : Advanced Video Codec
Format profile              : High@L3.1
Format settings             : CABAC / 5 Ref Frames
Format settings, CABAC      : Yes
Format settings, Reference  : 5 frames
Codec ID                    : avc1
Codec ID/Info               : Advanced Video Coding
Duration                    : 58 min 49 s
Bit rate                    : 1 100 kb/s
Width                       : 720 pixels
Height                      : 530 pixels
Display aspect ratio        : 4:3
Frame rate mode             : Constant
Frame rate                  : 23.976 (24000/1001) FPS
Color space                 : YUV
Chroma subsampling          : 4:2:0
Bit depth                   : 8 bits
Scan type                   : Progressive
Bits/(Pixel*Frame)          : 0.120
Stream size                 : 468 MiB (81%)
Title                       : Stagecoach.Buckaroo.1942.WEBRip.x264-ION10

Audio
ID                          : 2
Format                      : AAC LC
Format/Info                 : Advanced Audio Codec Low Complexity
Codec ID                    : mp4a-40-2
Duration                    : 58 min 49 s
Bit rate mode               : Constant
Bit rate                    : 256 kb/s
Channel(s)                  : 2 channels
Channel layout              : L R
Sampling rate               : 48.0 kHz
Frame rate                  : 46.875 FPS (1024 SPF)
Compression mode            : Lossy
Stream size                 : 108 MiB (19%)
Title                       : Stagecoach.Buckaroo.1942.WEBRip.x264-ION10
Language                    : English
Default                     : Yes
Alternate group             : 1



Screen Shots

Stagecoach Buckaroo (1942) Johnny Mack Brown EluXc2P


Stagecoach Buckaroo (1942) Johnny Mack Brown Maozin10
Para visualizar Link com Legenda, Faça  um comentário:

Lucio49
Lucio49
Admin

Mensagens : 90
Data de inscrição : 10/06/2019
Localização : São Paulo

http://cine-antigo.forumeiros.com

Voltar ao Topo Ir em baixo

Voltar ao Topo

- Tópicos similares

 
Permissão deste fórum:
Você não pode responder aos tópicos neste fórum